#TITLE:NES Groove;
#SUBTITLE:;
#ARTIST:Unknown;
#TITLETRANSLIT:;
#SUBTITLETRANSLIT:;
#ARTISTTRANSLIT:;
#CREDIT:;
#BANNER:NESgroove.png;
#BACKGROUND:NESgroove-bg.png;
#LYRICSPATH:;
#CDTITLE:!SneakyTitle.png;
#MUSIC:NES groove.mp3;
#OFFSET:-0.025;
#SAMPLESTART:30.060;
#SAMPLELENGTH:12.500;
#SELECTABLE:YES;
#BPMS:0.000=140.210;
#STOPS:;
#BGCHANGES:;
// cache tags:
#FIRSTBEAT:4.000;
#LASTBEAT:227.250;
#SONGFILENAME:Songs/Music V.I.P ^_^/NES groove/NES groove.sm;
#HASMUSIC:1;
#HASBANNER:1;
#MUSICLENGTH:98.810;
// end cache tags

//---------------dance-single - ----------------
#NOTES:
     dance-single:
     :
     Challenge:
     10:
     0.954,0.977,0.779,0.192,1.000,564.000,77.000,19.000,0.000,0.000:  // measure 1
0000
0000
0000
0000
,  // measure 2
1000
0100
0010
0001
0010
0100
0010
1000
0100
0010
0001
0010
0001
0000
1000
0000
,  // measure 3
0010
0001
0010
0000
1000
0000
0100
0000
1001
0000
0000
0000
1100
0000
0210
0000
,  // measure 4
0000
0000
0000
0300
0110
0101
1100
0011
,  // measure 5
0110
1100
0110
2100
0000
0000
0000
3000
,  // measure 6
0000
0000
1000
0000
0100
0000
0100
0000
1000
0100
0000
0000
0010
0001
0000
0000
,  // measure 7
0100
0000
1000
0010
0100
0000
2002
0000
0000
3003
1000
0100
1000
0100
1000
0000
,  // measure 8
0001
1000
0100
1000
0010
0100
0010
0001
0100
0001
1000
0100
0001
0100
0010
0000
,  // measure 9
0100
1000
0020
0000
0000
0030
0001
0010
0100
1000
0100
0010
0001
0010
0100
1000
,  // measure 10
0100
0010
0001
0010
0100
1000
0010
0000
0001
0010
0000
0000
1000
0001
0000
0000
,  // measure 11
1100
0000
0110
0000
0011
0000
0110
0000
1100
0000
1001
0000
1000
0100
0010
0001
,  // measure 12
1001
0000
1100
0000
0110
0000
1001
0000
1100
0000
0110
0000
1000
0100
0010
0001
,  // measure 13
1010
0000
0110
0000
1100
0000
0011
0000
0110
0000
1100
0000
0010
0001
0010
0100
,  // measure 14
1100
0000
0110
0000
0011
0000
0110
0000
0011
0000
1010
0000
1000
0100
0010
0001
,  // measure 15
0101
1000
0020
0000
0000
0030
0010
0001
0100
0000
0100
0010
0001
0010
0001
0000
,  // measure 16
1000
0100
0010
0100
0010
0000
0001
0010
0100
1000
0002
0000
0100
0000
0000
0000
,  // measure 17
1003
0100
1000
0100
0010
0000
0001
1000
0010
0100
1000
0000
0001
0010
0100
1000
,  // measure 18
0100
0000
0001
0010
0100
0001
0100
1000
0020
0000
0000
0030
1001
0000
0000
0000
,  // measure 19
1001
0110
0101
2020
,  // measure 20
3030
0000
0000
0000
0100
0000
0010
0000
0001
0010
0100
0001
0010
0200
0000
0000
,  // measure 21
0000
0000
0000
0000
0000
0000
0300
0000
0000
0010
1000
0010
0100
0020
0000
0000
,  // measure 22
0000
0000
0000
0030
0100
1000
0100
0010
0001
0010
0100
1000
0100
0010
0001
0020
,  // measure 23
0000
0000
0000
0000
0000
0000
0030
0000
0000
0001
0100
0010
0001
0020
0000
0000
,  // measure 24
0000
0000
0000
0030
0100
0010
0001
0010
0100
0010
0100
0000
1010
0000
0000
0011
,  // measure 25
0000
0000
1000
0000
0000
0000
0010
0000
0100
0000
1000
0000
0011
0000
0000
1000
,  // measure 26
0000
0000
0100
0000
0011
0011
0000
0000
1010
1010
0000
0000
0101
0000
0000
1001
,  // measure 27
0000
0000
1010
0000
0000
0000
1000
0000
0010
0000
0100
0000
1100
0000
0000
0001
,  // measure 28
0000
0000
1000
0000
0011
0011
0000
0000
1100
1100
0000
0000
1001
0000
0000
1100
,  // measure 29
0000
0000
1001
0000
0000
0000
1100
0000
0110
0000
0011
0000
1100
0000
0000
1100
,  // measure 30
0000
0000
0110
0000
1000
0100
0000
0000
0001
0010
0000
0000
1100
0000
0000
1100
,  // measure 31
0000
0000
0011
0000
0000
0000
1000
0000
0010
0000
0001
0000
1100
0000
0000
0110
,  // measure 32
0000
0000
1100
0000
0001
0001
0000
0000
1000
1000
0000
0000
1000
0100
0010
0001
,  // measure 33
0010
0100
1000
0100
0010
0100
0010
0001
0010
0100
1000
0000
0011
0000
0000
0000
,  // measure 34
1100
0000
0000
0000
0011
0000
0000
0000
1100
0000
0000
0000
1000
0000
0100
0010
,  // measure 35
0100
1000
0001
0100
1000
0100
0010
0001
0010
0100
0010
0001
0010
0100
1000
0100
,  // measure 36
0010
0001
0010
0100
1000
0010
1000
0100
0001
0010
1000
0100
1000
0010
0100
0001
,  // measure 37
0010
0100
1000
0010
0100
0001
0010
0100
1000
0010
0100
0001
0100
0010
1000
0100
,  // measure 38
1000
0010
0001
0100
1000
0010
0100
0001
1000
0001
0200
0000
0000
0000
0300
0000
,  // measure 39
1000
0100
0010
0001
0010
0100
1000
0100
0010
0000
1000
0000
0000
0000
0010
0000
0100
0000
0000
0000
0010
0000
2000
0000
0000
0000
0000
0000
0000
0000
0000
0000
,  // measure 40
3000
0000
0000
0000
0100
0010
0001
0010
0100
1000
0100
0010
0100
1000
0100
0010
,  // measure 41
0001
0010
0100
1000
0100
0010
0001
0010
0100
0010
0100
0010
0001
0010
0100
1000
,  // measure 42
0100
0010
0001
0010
0100
1000
0100
0010
0100
0010
0100
0010
0001
0010
0100
0010
,  // measure 43
0001
0000
0010
0000
0200
0000
0000
0000
0300
0000
0001
0000
0001
0000
0000
0000
0000
0000
1000
0000
1000
0000
0000
0000
0000
0100
0000
0100
0000
0000
0000
0000
,  // measure 44
1000
1000
0000
0000
0100
0010
0100
0000
0001
0000
0100
0010
0100
0000
1000
0100
,  // measure 45
0000
0010
0100
0000
1000
0100
1000
0000
0001
0000
1000
0100
1000
0000
0001
0010
,  // measure 46
0000
1000
0100
0000
1000
0100
1000
0000
0001
0000
1000
0100
1000
0000
0001
0010
,  // measure 47
0000
1000
0100
0000
1000
0100
1000
0000
0001
0000
1000
0100
1000
0000
0001
0010
,  // measure 48
0000
1000
0100
0000
1000
0100
1000
0000
0001
0000
1000
0100
1000
0000
0001
0010
,  // measure 49
0000
1000
0100
0000
1000
0100
1000
0000
0001
0000
1000
0100
1000
0000
0001
0010
,  // measure 50
0000
1000
0100
0000
1000
0100
1000
0000
0001
0000
1000
0100
1000
0000
0001
0010
,  // measure 51
0000
1000
0100
0000
1000
0100
1000
0000
0001
0000
1000
0100
1000
0000
0001
0010
,  // measure 52
0000
1000
0100
0000
1000
0100
1000
0000
0001
0000
1000
0100
1000
0000
0001
0010
,  // measure 53
0000
1000
0100
0000
1000
0100
1000
0000
0001
0000
1000
0100
1000
0000
0001
0010
,  // measure 54
0000
1000
0100
0000
1000
0100
1000
0000
0001
0000
1000
0100
1000
0000
0001
0010
,  // measure 55
0000
1000
0100
0000
1000
0100
1000
0000
0001
0000
1000
0100
1000
0000
0001
0010
,  // measure 56
0000
1000
0100
0000
1000
0100
1000
0010
0001
0010
0100
1000
0100
0010
1000
0100
,  // measure 57
0010
0001
0010
0100
1000
0202
0000
0000
0000
0000
0000
0000
0000
0303
0000
0000
;
